img image001 image001 image001 image001 image001 image001 image001 image001 image001 image001 image001 image001 image001 image001 image001

Planets Sun Sun Sun
Статистика раздачи
Автор: Nickolas3434 | Размер: 33.7 ГБ | Добавлен: 20 дек 2017, 14:17
Раздают: 0    Качают: 0
Скачать торрент
Скачать торрент
Описание торрента

СообщениеДобавлено: 20 дек 2017, 14:17 

Название: Прометей
Оригинальное название: Prometheus
Год выхода: 2012
Жанр: фантастика, триллер, приключения
Режиссер: Ридли Скотт
В ролях: Нуми Рапас, Майкл Фассбендер, Шарлиз Терон, Идрис Эльба, Гай Пирс, Логан Маршалл-Грин, Шон Харрис, Рейф Сполл, Иман Эллиотт, Бенедикт Вонг
О фильме:
В поисках сакрального знания группа ученых отправляется в самые темные и неизведанные чертоги вселенной. Именно там, в отдаленных мирах, находясь на пределе своих умственных и физических возможностей, им предстоит вступить в безжалостную схватку за будущее всего человечества…

Страна: США, Великобритания
Студия: Twentieth Century Fox
Продолжительность: 02:03:50
Перевод: профессиональный (дублированный), профессиональный (многоголосый), авторский (одноголосый)
Субтитры: русские, украинские, английские
Формат: MKV
Качество: Hybrid 1080p | Open Matte
Видео: MPEG-4 AVC, 30000 Кбит/с, 1920x1080, 23.976 кадр/с
Звук:
#1: Russian: 48 kHz, DTS, 5.1, 768 kbps |Дубляж, Blu-Ray CEE|
#2: Russian: 48 kHz, AC3, 2.0, 192 kbps |Многоголосый закадровый, Первый канал|
#3: Russian: 48 kHz, DTS, 5.1, 1509 kbps |Одноголосый закадровый, Гаврилов|
#4: Russian: 48 kHz, DTS, 5.1, 1509 kbps |Одноголосый закадровый, Сербин|
#5: Russian: 48 kHz, DTS, 5.1, 1509 kbps |Одноголосый закадровый, Горчаков|
#6: Russian: 48 kHz, DTS, 5.1, 1509 kbps |Одноголосый закадровый, Матвеев|
#7: Ukrainian: 48 kHz, AC3, 5.1, 448 kbps |Дубляж, Blu-Ray CEE|
#8: English: 48 kHz, DTS, 5.1, 1509 kbps |Оригинал|
Format : Matroska
Format version : Version 4 / Version 2
File size : 33.7 GiB
Duration : 2 h 3 min
Overall bit rate mode : Variable
Overall bit rate : 39.0 Mb/s
Movie name : Прометей.BDRip.thx:SPOMOPS.
Encoded date : UTC 2017-12-19 05:05:30
Writing application : mkvmerge v19.0.0 ('Brave Captain') 64-bit
Writing library : libebml v1.3.5 + libmatroska v1.4.8
Video
ID : 1
Format : AVC
Format/Info : Advanced Video Codec
Format profile : [email protected]
Format settings, CABAC : Yes
Format settings, RefFrames : 4 frames
Codec ID : V_MPEG4/ISO/AVC
Duration : 2 h 3 min
Bit rate mode : Variable
Bit rate : 30.0 Mb/s
Maximum bit rate : 40.0 Mb/s
Width : 1 920 pixels
Height : 1 080 pixels
Display aspect ratio : 16:9
Frame rate mode : Constant
Frame rate : 23.976 (24000/1001) FPS
Color space : YUV
Chroma subsampling : 4:2:0
Bit depth : 8 bits
Scan type : Progressive
Bits/(Pixel*Frame) : 0.603
Stream size : 25.9 GiB (77%)
Default : Yes
Forced : No
Color range : Limited
Color primaries : BT.709
Transfer characteristics : BT.709
Matrix coefficients : BT.709
Audio #1
ID : 2
Format : DTS
Format/Info : Digital Theater Systems
Muxing mode : zlib
Codec ID : A_DTS
Duration : 2 h 3 min
Bit rate : 768 kb/s
Channel(s) : 6 channels
Sampling rate : 48.0 kHz
Frame rate : 93.750 FPS (512 SPF)
Bit depth : 24 bits
Compression mode : Lossy
Stream size : 680 MiB (2%)
Title : Русский DTS 768 - дубляж
Language : Russian
Default : Yes
Forced : No
Audio #2
ID : 3
Format : AC-3
Format/Info : Audio Coding 3
Format settings, Endianness : Big
Codec ID : A_AC3
Duration : 2 h 3 min
Bit rate mode : Constant
Bit rate : 192 kb/s
Channel(s) : 2 channels
Channel positions : Front: L R
Sampling rate : 48.0 kHz
Frame rate : 31.250 FPS (1536 SPF)
Bit depth : 16 bits
Compression mode : Lossy
Stream size : 170 MiB (0%)
Title : 1 Канал
Language : Russian
Service kind : Complete Main
Default : No
Forced : No
Audio #3
ID : 4
Format : DTS
Format/Info : Digital Theater Systems
Mode : 16
Format settings, Endianness : Big
Codec ID : A_DTS
Duration : 2 h 3 min
Bit rate mode : Constant
Bit rate : 1 509 kb/s
Channel(s) : 6 channels
Channel positions : Front: L C R, Side: L R, LFE
Sampling rate : 48.0 kHz
Frame rate : 93.750 FPS (512 SPF)
Bit depth : 24 bits
Compression mode : Lossy
Stream size : 1.30 GiB (4%)
Title : Русский DTS 1536 - АП (Гаврилов)
Language : Russian
Default : No
Forced : No
Audio #4
ID : 5
Format : DTS
Format/Info : Digital Theater Systems
Mode : 16
Format settings, Endianness : Big
Codec ID : A_DTS
Duration : 2 h 3 min
Bit rate mode : Constant
Bit rate : 1 509 kb/s
Channel(s) : 6 channels
Channel positions : Front: L C R, Side: L R, LFE
Sampling rate : 48.0 kHz
Frame rate : 93.750 FPS (512 SPF)
Bit depth : 24 bits
Compression mode : Lossy
Stream size : 1.30 GiB (4%)
Title : Русский DTS 1536 - АП (Сербин)
Language : Russian
Default : No
Forced : No
Audio #5
ID : 6
Format : DTS
Format/Info : Digital Theater Systems
Mode : 16
Format settings, Endianness : Big
Codec ID : A_DTS
Duration : 2 h 3 min
Bit rate mode : Constant
Bit rate : 1 509 kb/s
Channel(s) : 6 channels
Channel positions : Front: L C R, Side: L R, LFE
Sampling rate : 48.0 kHz
Frame rate : 93.750 FPS (512 SPF)
Bit depth : 24 bits
Compression mode : Lossy
Stream size : 1.30 GiB (4%)
Title : Русский DTS 1536 - АП (Горчаков)
Language : Russian
Default : No
Forced : No
Audio #6
ID : 7
Format : DTS
Format/Info : Digital Theater Systems
Mode : 16
Format settings, Endianness : Big
Codec ID : A_DTS
Duration : 2 h 3 min
Bit rate mode : Constant
Bit rate : 1 509 kb/s
Channel(s) : 6 channels
Channel positions : Front: L C R, Side: L R, LFE
Sampling rate : 48.0 kHz
Frame rate : 93.750 FPS (512 SPF)
Bit depth : 24 bits
Compression mode : Lossy
Stream size : 1.30 GiB (4%)
Title : Русский DTS 1536 - АП (Матвеев)
Language : Russian
Default : No
Forced : No
Audio #7
ID : 8
Format : AC-3
Format/Info : Audio Coding 3
Format settings, Endianness : Big
Codec ID : A_AC3
Duration : 2 h 3 min
Bit rate mode : Constant
Bit rate : 448 kb/s
Channel(s) : 6 channels
Channel positions : Front: L C R, Side: L R, LFE
Sampling rate : 48.0 kHz
Frame rate : 31.250 FPS (1536 SPF)
Bit depth : 16 bits
Compression mode : Lossy
Stream size : 397 MiB (1%)
Title : Украинский АСЗ 448 - дубляж
Language : Ukrainian
Service kind : Complete Main
Default : No
Forced : No
Audio #8
ID : 9
Format : DTS
Format/Info : Digital Theater Systems
Mode : 16
Format settings, Endianness : Big
Codec ID : A_DTS
Duration : 2 h 3 min
Bit rate mode : Constant
Bit rate : 1 509 kb/s
Channel(s) : 6 channels
Channel positions : Front: L C R, Side: L R, LFE
Sampling rate : 48.0 kHz
Frame rate : 93.750 FPS (512 SPF)
Bit depth : 24 bits
Compression mode : Lossy
Stream size : 1.30 GiB (4%)
Title : Английский DTS 1536 - оригинал
Language : English
Default : No
Forced : No
Text #1
ID : 10
Format : UTF-8
Codec ID : S_TEXT/UTF8
Codec ID/Info : UTF-8 Plain Text
Duration : 4 min 26 s
Bit rate : 15 b/s
Count of elements : 10
Stream size : 514 Bytes (0%)
Title : Русские - форс
Language : Russian
Default : No
Forced : No
Text #2
ID : 11
Format : UTF-8
Codec ID : S_TEXT/UTF8
Codec ID/Info : UTF-8 Plain Text
Duration : 1 h 51 min
Bit rate : 71 b/s
Count of elements : 1364
Stream size : 58.3 KiB (0%)
Title : Русские
Language : Russian
Default : No
Forced : No
Text #3
ID : 12
Format : UTF-8
Codec ID : S_TEXT/UTF8
Codec ID/Info : UTF-8 Plain Text
Duration : 1 h 56 min
Bit rate : 62 b/s
Count of elements : 1008
Stream size : 53.4 KiB (0%)
Title : Русские - 107miller
Language : Russian
Default : No
Forced : No
Text #4
ID : 13
Format : UTF-8
Codec ID : S_TEXT/UTF8
Codec ID/Info : UTF-8 Plain Text
Duration : 1 h 53 min
Bit rate : 65 b/s
Count of elements : 1080
Stream size : 54.1 KiB (0%)
Title : Русские - Stevvie
Language : Russian
Default : No
Forced : No
Text #5
ID : 14
Format : UTF-8
Codec ID : S_TEXT/UTF8
Codec ID/Info : UTF-8 Plain Text
Duration : 1 h 53 min
Bit rate : 63 b/s
Count of elements : 994
Stream size : 52.9 KiB (0%)
Title : Русские - voronine
Language : Russian
Default : No
Forced : No
Text #6
ID : 15
Format : UTF-8
Codec ID : S_TEXT/UTF8
Codec ID/Info : UTF-8 Plain Text
Duration : 4 min 26 s
Bit rate : 15 b/s
Count of elements : 10
Stream size : 510 Bytes (0%)
Title : Украинские - forced
Language : Ukrainian
Default : No
Forced : No
Text #7
ID : 16
Format : UTF-8
Codec ID : S_TEXT/UTF8
Codec ID/Info : UTF-8 Plain Text
Duration : 1 h 51 min
Bit rate : 72 b/s
Count of elements : 1350
Stream size : 59.0 KiB (0%)
Title : Украинские
Language : Ukrainian
Default : No
Forced : No
Text #8
ID : 17
Format : UTF-8
Codec ID : S_TEXT/UTF8
Codec ID/Info : UTF-8 Plain Text
Duration : 1 h 51 min
Bit rate : 43 b/s
Count of elements : 1408
Stream size : 35.8 KiB (0%)
Title : Английские - full
Language : English
Default : No
Forced : No
Text #9
ID : 18
Format : UTF-8
Codec ID : S_TEXT/UTF8
Codec ID/Info : UTF-8 Plain Text
Duration : 1 h 55 min
Bit rate : 53 b/s
Count of elements : 2010
Stream size : 45.2 KiB (0%)
Title : Английские - SDH
Language : English
Default : No
Forced : No
Menu
00:00:00.000 : en:00:00:00.000
00:05:13.146 : en:00:05:13.146
00:07:44.881 : en:00:07:44.881
00:11:31.524 : en:00:11:31.524
00:15:09.784 : en:00:15:09.784
00:20:04.912 : en:00:20:04.912
00:22:32.810 : en:00:22:32.810
00:27:43.120 : en:00:27:43.120
00:31:57.833 : en:00:31:57.833
00:34:10.840 : en:00:34:10.840
00:37:53.229 : en:00:37:53.229
00:40:45.360 : en:00:40:45.360
00:45:49.330 : en:00:45:49.330
00:48:47.925 : en:00:48:47.925
00:50:23.062 : en:00:50:23.062
00:53:56.400 : en:00:53:56.400
00:56:32.222 : en:00:56:32.222
00:59:31.610 : en:00:59:31.610
01:01:29.185 : en:01:01:29.185
01:04:17.562 : en:01:04:17.562
01:06:01.457 : en:01:06:01.457
01:08:57.884 : en:01:08:57.884
01:11:13.519 : en:01:11:13.519
01:15:10.631 : en:01:15:10.631
01:17:06.038 : en:01:17:06.038
01:25:02.306 : en:01:25:02.306
01:27:09.349 : en:01:27:09.349
01:30:10.363 : en:01:30:10.363
01:32:43.725 : en:01:32:43.725
01:35:23.134 : en:01:35:23.134
01:37:46.861 : en:01:37:46.861
01:40:46.374 : en:01:40:46.374
01:43:46.220 : en:01:43:46.220
01:48:28.794 : en:01:48:28.794
01:52:08.096 : en:01:52:08.096
01:58:06.288 : en:01:58:06.288

Основной источник видео, это HDTV запись с канала 1HD. Для удаления логотипа и всплывающих реклам использовалась купленная WEB-DL с онлайн кинотеатра, произведена небольшая цветокоррекция, добавлена 35 mm зернистость.
http://screenshotcomparison.com/comparison/126710



   Похожие торренты   Торрент   Размер 
В этой теме нет новых непрочитанных сообщений. Прометей / Prometheus (2012) Hybrid 1080p | D, P, А | Open Matte

4 | 5

33.7 ГБ

В этой теме нет новых непрочитанных сообщений. Прометей / Prometheus (2012) HybridRip-AVC | D | Open Matte

24 | 4

4.7 ГБ

В этой теме нет новых непрочитанных сообщений. Прометей / Prometheus (2012) HDTVRip-AVC от ExKinoRay | Open Matte

34 | 1

4.07 ГБ

В этой теме нет новых непрочитанных сообщений. Прометей / Prometheus (2012) HDTV 1080i | Open Matte | D, P, A

0 | 0

10.84 ГБ

В этой теме нет новых непрочитанных сообщений. Прометей / Prometheus (2012) HDTV 1080i | Open Matte | D, P, А

0 | 0

10.84 ГБ

В этой теме нет новых непрочитанных сообщений. Осада / The Siege (1998) Hybrid 1080p | D, P, P2, А | Open Matte

5 | 1

15.52 ГБ

В этой теме нет новых непрочитанных сообщений. Аполлон 13 / Apollo 13 (1995) Hybrid 1080p | D, P, P2, A | Open Matte

3 | 0

26.78 ГБ




Вы не можете начинать темы
Вы не можете отвечать на сообщения
Вы не можете редактировать свои сообщения
Вы не можете удалять свои сообщения
Вы не можете добавлять вложения

Перейти:  
Для Мосгорсуда, Роскомнадзора и рекламодателей: mosgorsud-torrent[собачка]yandex.ru
Настройки
ppkBB3cker v.2 © 2008-2014 @ PPK
[ Time : 0.027s | 17 Queries | GZIP : Off ]

cron