img image001 image001 image001 image001 image001 image001 image001 image001 image001 image001 image001 image001 image001 image001 image001

Planets Sun Sun Sun
Статистика раздачи
Автор: Nickolas3434 | Размер: 4.37 ГБ | Добавлен: 29 апр 2017, 20:09
Раздают: 49    Качают: 5
Скачать торрент
Скачать торрент
Описание торрента

СообщениеДобавлено: 29 апр 2017, 20:09 

Информация о фильме
Название: Белый плен
Оригинальное название: Eight Below
Год выхода: 2006
Жанр: Мелодрама, Драма, Приключения, Семейный
Режиссер: Фрэнк Маршалл / Frank Marshall
В ролях: Пол Уокер, Брюс Гринвуд, Мун Блудгуд, Джейсон Биггз, Джерард Планкетт, Аугуст Шелленберг, Венди Крюсон, Белинда Мец, Коннор Кристофер Левинс, Дункан Фрайзер, Дэн Зиски, Майкл Дэвид Симс, Дэниэл Бэйкон, Малкольм Стюарт, Декстер Белл, Гари Чок, Бренда Кэмпбелл, Дэймон Джонсон
О фильме:
Действие фильма разворачивается на бескрайних просторах Антарктики. Научная экспедиция, в состав которой входят Джерри Шепард, его лучший друг Купер и геолог, отправляется на поиски метеорита. Однако неожиданное происшествие и тяжелые погодные условия вынуждают их оставить свои собачьи упряжки и вернуться назад. И теперь восемь собак должны в течение шести месяцев бороться за выживание в ледяной пустыне и ждать, пока их спасут…

Страна: США
Студия: Walt Disney Pictures
Продолжительность: 02:00:21
Перевод: Профессиональный (полное дублирование)
Семпл:
Файл
Кодек: MPEG-4
Качество: BDRip 720p | Open Matte |
Видео: AVC, 1280 x 720 (16:9), 23.976 fps, 4812 Kbps
Звук: 48 kHz, AC3, 6 ch, 384 kbps - Dub
Субтитры: русские (цветные), английские (цветные), английские
Eight.Below.2006.BDRip.720p.x264.Rus.Subs.mkv
Format : Matroska
Format version : Version 2
File size : 4.37 GiB
Duration : 2 h 0 min
Overall bit rate : 5 196 kb/s
Encoded date : UTC 2010-07-01 09:04:14
Writing application : mkvmerge v2.9.8 ('C'est le bon') built on Aug 13 2009 12:49:06
Writing library : libebml v0.7.7 + libmatroska v0.8.1
Video
ID : 1
Format : AVC
Format/Info : Advanced Video Codec
Format profile : [email protected]
Format settings, CABAC : Yes
Format settings, ReFrames : 9 frames
Codec ID : V_MPEG4/ISO/AVC
Duration : 2 h 0 min
Bit rate : 4 812 kb/s
Width : 1 280 pixels
Height : 720 pixels
Display aspect ratio : 16:9
Frame rate mode : Constant
Frame rate : 23.976 (24000/1001) FPS
Color space : YUV
Chroma subsampling : 4:2:0
Bit depth : 8 bits
Scan type : Progressive
Bits/(Pixel*Frame) : 0.218
Stream size : 3.96 GiB (91%)
Title : Eight.Below.2005.BDRip.720p.x264.Rus.Subs
Writing library : x264 core 54 svn-614
Encoding settings : cabac=1 / ref=6 / deblock=1:-3:-3 / analyse=0x3:0x133 / me=umh / subme=7 / brdo=1 / mixed_ref=1 / me_range=16 / chroma_me=1 / trellis=1 / 8x8dct=1 / cqm=2 / deadzone=22,11 / chroma_qp_offset=0 / threads=3 / nr=0 / decimate=1 / mbaff=0 / bframes=3 / b_pyramid=1 / b_adapt=1 / b_bias=0 / direct=3 / wpredb=1 / bime=1 / keyint=250 / keyint_min=25 / scenecut=40(pre) / rc=2pass / bitrate=4812 / ratetol=1.0 / rceq='blurCplx^(1-qComp)' / qcomp=0.60 / qpmin=10 / qpmax=51 / qpstep=4 / cplxblur=20.0 / qblur=0.5 / ip_ratio=1.40 / pb_ratio=1.30
Language : English
Default : Yes
Forced : No
Audio
ID : 2
Format : AC-3
Format/Info : Audio Coding 3
Mode extension : CM (complete main)
Format settings, Endianness : Big
Codec ID : A_AC3
Duration : 2 h 0 min
Bit rate mode : Constant
Bit rate : 384 kb/s
Channel(s) : 6 channels
Channel positions : Front: L C R, Side: L R, LFE
Sampling rate : 48.0 kHz
Frame rate : 31.250 FPS (1536 spf)
Bit depth : 16 bits
Compression mode : Lossy
Stream size : 331 MiB (7%)
Title : 48 kHz, AC3, 6 ch, 384 kbps - Dub
Language : Russian
Default : Yes
Forced : No
Text #1
ID : 3
Format : ASS
Codec ID : S_TEXT/ASS
Codec ID/Info : Advanced Sub Station Alpha
Compression mode : Lossless
Language : Russian
Default : Yes
Forced : No
Text #2
ID : 4
Format : ASS
Codec ID : S_TEXT/ASS
Codec ID/Info : Advanced Sub Station Alpha
Compression mode : Lossless
Language : English
Default : No
Forced : No
Text #3
ID : 5
Format : UTF-8
Codec ID : S_TEXT/UTF8
Codec ID/Info : UTF-8 Plain Text
Language : English
Default : No
Forced : No






   Похожие торренты   Торрент   Размер 
В этой теме нет новых непрочитанных сообщений. Белый плен / Eight Below (2006) WEB-DLRip-AVC | D | Open Matte

26 | 1

1.45 ГБ

В этой теме нет новых непрочитанных сообщений. Белый плен / Eight Below (2006) WEB-DL 1080p | D, A | Open Matte

12 | 1

11.03 ГБ

В этой теме нет новых непрочитанных сообщений. Белый плен / Eight Below (2006) WEB-DLRip от Scarabey | Open Matte | D

26 | 6

1.45 ГБ

В этой теме нет новых непрочитанных сообщений. Белый плен / Eight Below (2006) BDRip-AVC 720p

52 | 3

4.38 ГБ

В этой теме нет новых непрочитанных сообщений. Белый плен / Eight Below (2006) BDRip 720p от HELLYWOOD | D, A

16 | 2

5.75 ГБ

В этой теме нет новых непрочитанных сообщений. Белый плен / Eight Below (2006) BDRip 720p от DHT-Movies

424 | 6

3.66 ГБ

В этой теме нет новых непрочитанных сообщений. Белый плен / Eight Below (2006) BDRip 720p от NOLIMITS-TEAM

62 | 2

2.23 ГБ




Вы не можете начинать темы
Вы не можете отвечать на сообщения
Вы не можете редактировать свои сообщения
Вы не можете удалять свои сообщения
Вы не можете добавлять вложения

Перейти:  
Для Мосгорсуда, Роскомнадзора и рекламодателей: mosgorsud-torrent[собачка]yandex.ru
Настройки
ppkBB3cker v.2 © 2008-2014 @ PPK
[ Time : 0.033s | 17 Queries | GZIP : Off ]

cron