img image001 image001 image001 image001 image001 image001 image001 image001 image001 image001 image001 image001 image001 image001 image001

Planets Sun Sun Sun
Статистика раздачи
Автор: PriZraK | Размер: 1.45 ГБ | Добавлен: 28 авг 2016, 22:11
Раздают: 100    Качают: 13
Скачать торрент
Скачать торрент
Описание торрента

СообщениеДобавлено: 28 авг 2016, 22:11 


Информация о фильме
Название: Бразилия
Оригинальное название: Brazil
Год выхода: 1985
Жанр: фантастика, драма
Режиссер: Терри Гиллиам
В ролях: Джонатан Прайс, Роберт Де Ниро, Кэтрин Хелмонд, Иэн Холм, Боб Хоскинс, Майкл Пэлин, Иэн Ричардсон, Питер Вон, Ким Грайст, Джим Бродбент
О фильме:
Сэм Лаури вполне доволен своей жизнью, он предпочитает работу мелкого клерка и согласен мириться с необустроенным собственным бытом вопреки воле матери, входящей в элиту системы. Но внезапно он встречает девушку, которую постоянно видит в своих снах. Ради того, чтобы снова встретить её, он решается сменить работу.

Страна: Великобритания
Студия: Embassy International Pictures
Продолжительность: 02:23:26
Перевод: Профессиональный многоголосый (Blu-ray EUR)
Файл
Качество: HDRip (Brazil.Director's.Cut.1985.Criterion.720p-CtrlHD)
Видео: XviD, 1245 Кбит/с, 688x384, 23.976 кадр/с
Звук: AC3, 2 ch, 192 Кбит/c
Общее
Полное имя : Brazil.Director's.Cut.1985.HDRip.avi
Формат : AVI
Формат/Информация : Audio Video Interleave
Размер файла : 1,45 Гбайт
Продолжительность : 2 ч. 23 м.
Общий поток : 1447 Кбит/сек
Программа кодирования : VirtualDubMod 1.5.10.2 (build 2540/release)
Библиотека кодирования : VirtualDubMod build 2540/release
Видео
Идентификатор : 0
Формат : MPEG-4 Visual
Профиль формата : Advanced [email protected]
Параметр BVOP формата : 1
Параметр QPel формата : Нет
Параметр GMC формата : Без точки перехода
Параметр матрицы формата : Default (MPEG)
Идентификатор кодека : XVID
Идентификатор кодека/Подсказка : XviD
Продолжительность : 2 ч. 23 м.
Битрейт : 1245 Кбит/сек
Ширина : 688 пикселей
Высота : 384 пикселя
Соотношение сторон : 16:9
Частота кадров : 23,976 (23976/1000) кадра/сек
Цветовое пространство : YUV
Субдискретизация насыщенности : 4:2:0
Битовая глубина : 8 бит
Тип развёртки : Прогрессивная
Метод сжатия : С потерями
Бит/(Пиксели*Кадры) : 0.197
Размер потока : 1,25 Гбайт (86%)
Библиотека кодирования : XviD 1.2.0.dev47 (UTC 2006-11-01)
Аудио
Идентификатор : 1
Формат : AC-3
Формат/Информация : Audio Coding 3
Расширение режима : CM (complete main)
Параметр Endianness формата : Big
Идентификатор кодека : 2000
Продолжительность : 2 ч. 23 м.
Вид битрейта : Постоянный
Битрейт : 192 Кбит/сек
Каналы : 2 канала
Расположение каналов : Front: L R
Частота : 48,0 КГц
Частота кадров : 31,250 кадров/сек (1536 spf)
Метод сжатия : С потерями
Размер потока : 197 Мбайт (13%)
Выравнивание : Разделение по промежуткам
Продолжительность промежутка : 42 мс. (1,00 видеокадр)
Время предзагрузки промежутка : 500 мс.



   Похожие торренты   Торрент   Размер 
В этой теме нет новых непрочитанных сообщений. Бразилия / Brazil (1985) BDRip от HQCLUB | Director's Cut

47 | 8

2.18 ГБ

В этой теме нет новых непрочитанных сообщений. Бразилия / Brazil (1985) BDRip-AVC от HQ-ViDEO | Director's cut

1 | 2

2.18 ГБ

В этой теме нет новых непрочитанных сообщений. Бразилия / Brazil [Director's cut] (1985) BDRip от HELLYWOOD

14 | 4

2.18 ГБ

В этой теме нет новых непрочитанных сообщений. Бразилия / Brazil (1985) BDRip-AVC от Rulya74 | Director's Cut

33 | 4

2.18 ГБ

В этой теме нет новых непрочитанных сообщений. Бразилия / Brazil (1985) BDRip 1080p | Director's Cut

32 | 4

7.94 ГБ

В этой теме нет новых непрочитанных сообщений. Бразилия / Brazil (1985) BDRip 720p от HQ-ViDEO | Director's cut

2 | 1

7.91 ГБ

В этой теме нет новых непрочитанных сообщений. Бразилия / Brazil (1985) HDRip 720p

4 | 2

4.38 ГБ




Вы не можете начинать темы
Вы не можете отвечать на сообщения
Вы не можете редактировать свои сообщения
Вы не можете удалять свои сообщения
Вы не можете добавлять вложения

Перейти:  
Для Мосгорсуда, Роскомнадзора и рекламодателей: mosgorsud-torrent[собачка]yandex.ru
Настройки
ppkBB3cker v.2 © 2008-2014 @ PPK
[ Time : 0.033s | 17 Queries | GZIP : Off ]

cron