img image001 image001 image001 image001 image001 image001 image001 image001 image001 image001 image001 image001 image001 image001 image001

Planets Sun Sun Sun
Статистика раздачи
Автор: Nickolas3434 | Размер: 3.76 ГБ | Добавлен: 26 окт 2014, 20:09
Раздают: 129    Качают: 18
Скачать торрент
Скачать торрент
Описание торрента

СообщениеДобавлено: 26 окт 2014, 20:09 

Информация о фильме
Название: Деньги на двоих
Оригинальное название: Two for the Money
Год выхода: 2005
Жанр: Триллер, драма, спорт
Режиссер: Д. Дж. Карузо
В ролях: Аль Пачино, Мэттью МакКонахи, Рене Руссо, Арманд Ассанте, Джереми Пивен, Джейми Кинг, Кевин Чэпмен, Ральф Гармен, Гедде Ватанабэ, Карли Поуп
О фильме: Форвард успешной футбольной команды Брэндон, получив травму и навсегда распрощавшись со спортивной карьерой, вынужден искать иные способы заработка. Тут-то он и вспоминает знаменитого букмекера Уолтера, некогда предлагавшего Брэндону выгодные аферы, на которые звезда футбола всегда отвечал гордым отказом. Уолтер, знающий наверняка, как легко и быстро приумножить капитал, заключает с экс-футболистом авантюрный договор. Жонглируя миллионами долларов, Брэндон и Уолтер вступают в опасную игру, где проигрыш подобен смерти. К ним в руки плывут бешеные деньги, но выдержит ли Боливар двоих?…

Страна: США
Студия: Cosmic Entertainment , Morgan Creek Productions, Universal Pictures
Продолжительность: 02:02:33
Перевод: Дублированный
Файл
Кодек: MPEG-4 AVC
Качество: BDRip-AVC
Видео: 3500 Кбит/с, 1024x436, 23.976 кадр/с
Звук:
Аудио #1: Русский (AC3, 6 ch, 448 Кбит/с) / Дублированный
Аудио #2: Английский (AC3, 6 ch, 448 Кбит/с)
Субтитры: Русские, английские
Семпл
Общее
Уникальный идентификатор : 215151746506057122454560742543194507632 (0xA1DCB818236E0FF7B8DEAA861E26C970)
Полное имя : D:Мои РипыDengi.na.dvoih.2005.x264.BDRip.AVC.MediaClub.mkv
Формат : Matroska
Версия формата : Version 4 / Version 2
Размер файла : 3,76 Гбайт
Продолжительность : 2 ч. 2 м.
Общий поток : 4385 Кбит/сек
Название фильма : = MediaClub = rip by krakatuq
Дата кодирования : UTC 2014-10-26 08:47:40
Программа кодирования : mkvmerge v6.6.0 ('The Edge Of The In Between') built on Dec 1 2013 17:55:00
Библиотека кодирования : libebml v1.3.0 + libmatroska v1.4.1
Видео
Идентификатор : 1
Формат : AVC
Формат/Информация : Advanced Video Codec
Профиль формата : [email protected]
Параметр CABAC формата : Да
Параметр ReFrames формата : 9 кадров
Идентификатор кодека : V_MPEG4/ISO/AVC
Продолжительность : 2 ч. 2 м.
Битрейт : 3500 Кбит/сек
Ширина : 1024 пикселя
Высота : 436 пикселей
Соотношение сторон : 2,35:1
Режим частоты кадров : Постоянный
Частота кадров : 23,976 кадра/сек
Цветовое пространство : YUV
Субдискретизация насыщенности : 4:2:0
Битовая глубина : 8 бит
Тип развёртки : Прогрессивная
Бит/(Пиксели*Кадры) : 0.327
Размер потока : 2,92 Гбайт (78%)
Заголовок : Dengi.na.dvoih.2005.x264.BDRip.AVC.MediaClub
Библиотека кодирования : x264 core 142 r2409+42 04be48a tMod [[email protected]:2:0 X86]
Настройки программы : cabac=1 / ref=9 / deblock=1:-2:-2 / analyse=0x3:0x133 / me=umh / subme=11 / psy=1 / fade_compensate=0.00 / psy_rd=1.00:0.15 / mixed_ref=1 / me_range=32 / chroma_me=1 / trellis=2 / 8x8dct=1 / cqm=0 / deadzone=21,11 / fast_pskip=0 / chroma_qp_offset=-3 / threads=3 / lookahead_threads=1 / sliced_threads=0 / nr=0 / decimate=0 / interlaced=0 / bluray_compat=0 / constrained_intra=0 / fgo=0 / bframes=8 / b_pyramid=2 / b_adapt=2 / b_bias=0 / direct=3 / weightb=1 / open_gop=0 / weightp=2 / keyint=240 / keyint_min=23 / scenecut=40 / intra_refresh=0 / rc=2pass / mbtree=0 / bitrate=3500 / ratetol=1.0 / qcomp=0.60 / qpmin=0:0:0 / qpmax=69:69:69 / qpstep=4 / cplxblur=20.0 / qblur=0.5 / ip_ratio=1.40 / pb_ratio=1.30 / aq=1:1.00 / aq-sensitivity=10.00 / aq-factor=1.00:1.00:1.00 / aq2=0 / aq3=0
Язык : English
Default : Да
Forced : Нет
Аудио #1
Идентификатор : 2
Формат : AC-3
Формат/Информация : Audio Coding 3
Расширение режима : CM (complete main)
Параметр Endianness формата : Big
Идентификатор кодека : A_AC3
Продолжительность : 2 ч. 2 м.
Вид битрейта : Постоянный
Битрейт : 448 Кбит/сек
Каналы : 6 каналов
Расположение каналов : Front: L C R, Side: L R, LFE
Частота : 48,0 КГц
Битовая глубина : 16 бит
Метод сжатия : С потерями
Размер потока : 394 Мбайт (10%)
Заголовок : TRACK_01_DUB_RUS
Язык : Russian
Default : Да
Forced : Да
Аудио #2
Идентификатор : 3
Формат : AC-3
Формат/Информация : Audio Coding 3
Расширение режима : CM (complete main)
Параметр Endianness формата : Big
Идентификатор кодека : A_AC3
Продолжительность : 2 ч. 2 м.
Вид битрейта : Постоянный
Битрейт : 448 Кбит/сек
Каналы : 6 каналов
Расположение каналов : Front: L C R, Side: L R, LFE
Частота : 48,0 КГц
Битовая глубина : 16 бит
Метод сжатия : С потерями
Размер потока : 394 Мбайт (10%)
Заголовок : TRACK_02_ORIGINAL_ENG
Язык : English
Default : Нет
Forced : Нет
Текст #1
Идентификатор : 4
Формат : UTF-8
Идентификатор кодека : S_TEXT/UTF8
Идентификатор кодека/Информация : UTF-8 Plain Text
Заголовок : TEXT_01_SUB_RUS
Язык : Russian
Default : Нет
Forced : Нет
Текст #2
Идентификатор : 5
Формат : UTF-8
Идентификатор кодека : S_TEXT/UTF8
Идентификатор кодека/Информация : UTF-8 Plain Text
Заголовок : TEXT_02_SUB_ENG
Язык : English
Default : Нет
Forced : Нет
Меню
00:00:00.000 : en:It Was About Purity
00:01:53.738 : en:Hot Shot Quarterback
00:04:01.991 : en:Biggest 900 Line in Vegas
00:08:11.199 : en:The Job Offer
00:10:17.366 : en:Billion Dollar Business
00:14:53.767 : en:Interview and a Manicure
00:17:15.784 : en:Becoming John Anthony
00:23:28.323 : en:Dinner Challenge
00:28:40.552 : en:Picking and Selling
00:32:17.352 : en:We're All Lemons
00:36:21.846 : en:Sell With Confidence
00:39:52.556 : en:Building an Empire
00:43:39.700 : en:Sports Advisors
00:47:28.720 : en:Like Having a Son
00:50:11.049 : en:Jealousy All Around
00:54:03.907 : en:That You Dad?
00:57:01.876 : en:No Such Thing as Too Far
01:01:26.307 : en:Take It or Leave It
01:04:04.549 : en:Perfect Weekend
01:06:40.746 : en:Challenge Me
01:10:49.161 : en:A Ride With John Anthony
01:14:19.913 : en:Dangerous Territory
01:19:17.210 : en:Sorry Doesn't Cut It
01:23:30.380 : en:You Have to Go
01:26:18.756 : en:The Brandon Thing
01:30:25.628 : en:Meaningless Touchdown
01:33:02.410 : en:Between You and Me
01:39:32.424 : en:Flip a Coin
01:46:56.952 : en:Super XXXX
01:49:33.733 : en:The Is the game?
01:55:23.041 : en:Bet On It
01:56:50.044 : en:End Credits
x264 log
x264 [info]: frame I:1605 Avg QP:16.10 size: 81744
x264 [info]: frame P:35797 Avg QP:18.66 size: 31776
x264 [info]: frame B:138891 Avg QP:20.08 size: 13995



Релиз от:
Автор рипа:



   Похожие торренты   Торрент   Размер 
В этой теме нет новых непрочитанных сообщений. Деньги на двоих / Two for the Money (2005) BDRip-AVC от ExKinoRay | D

20 | 0

747.06 МБ

В этой теме нет новых непрочитанных сообщений. Деньги на двоих / Two for the Money (2005) BDRip-AVC от ExKinoRay | D, A

19 | 4

2.87 ГБ

В этой теме нет новых непрочитанных сообщений. Деньги на двоих / Two for the Money (2005) BDRip 720p | D

81 | 16

4.37 ГБ

В этой теме нет новых непрочитанных сообщений. Деньги на двоих / Two for the Money (2005) BDRip от HQ-ViDEO

32 | 17

2.57 ГБ

В этой теме нет новых непрочитанных сообщений. Деньги на двоих / Two for the Money (2005) BDRip 1080p от NNNB

101 | 14

7.94 ГБ

В этой теме нет новых непрочитанных сообщений. Деньги на двоих / Two for the Money (2005) BDRemux 1080p | D

11 | 18

29.65 ГБ

В этой теме нет новых непрочитанных сообщений. Деньги на двоих / Two for the Money (2005) HDRip от Portablius | D

126 | 20

750.27 МБ




Вы не можете начинать темы
Вы не можете отвечать на сообщения
Вы не можете редактировать свои сообщения
Вы не можете удалять свои сообщения
Вы не можете добавлять вложения

Перейти:  
Для Мосгорсуда, Роскомнадзора и рекламодателей: mosgorsud-torrent[собачка]yandex.ru
Настройки
ppkBB3cker v.2 © 2008-2014 @ PPK
[ Time : 0.023s | 17 Queries | GZIP : Off ]

cron