img image001 image001 image001 image001 image001 image001 image001 image001 image001 image001 image001 image001 image001 image001 image001

Planets Sun Sun Sun
Статистика раздачи
Автор: Снежана | Размер: 1.45 ГБ | Добавлен: 20 июл 2013, 23:00
Раздают: 128    Качают: 5
Скачать торрент
Скачать торрент
Описание торрента

СообщениеДобавлено: 20 июл 2013, 23:00 

#77

Информация о фильме
Название: Свет вокруг
Оригинальное название: Everything Is Illuminated
Год выхода: 2005
Жанр: драма, комедия
Режиссер: Лив Шрайбер / Liev Schreiber
В ролях: Элайджа Вуд /Elijah Wood/, Джонатан Сафран Фоер /Jonathan Safran Foer/, Юджин Хатц /Eugene Hutz/, Яна Храбетова /Jana Hrabetova/, Сюзанна Ходкова /Zuzana Hodkova/, Джил Казимиров /Gil Kazimirov

О фильме:
Молодой американец еврейского происхождения пытается найти женщину, которая спасла его дедушку во времена Второй мировой войны в украинской деревне. С помощью местных, которые очень слабо разговаривают на английском, сделать это будет не так уж и просто…

Страна: США
Студия: Warner Independent Pictures
Продолжительность: 01:45:22
Перевод: Профессиональный (многоголосый, закадровый)

Файл
Кодек: XviD / AC3
Качество: DVDRip
Видео: XviD, 688x384 (16:9), 23.976 fps, 1 517 Kbps (0.239 bit/pixel)
Звук: AC-3, 48.0 KHz, 6 ch, 448 Kbps, CBR

General
Complete name : E:Everything.Is.Illuminated_[Rutor.org].avi
Format : AVI
Format/Info : Audio Video Interleave
File size : 1.45 GiB
Duration : 1h 45mn
Overall bit rate : 1 974 Kbps
Writing application : VirtualDubMod 1.5.10.2 (build 2540/release)
Writing library : VirtualDubMod build 2540/release

Video
ID : 0
Format : MPEG-4 Visual
Format profile : Advanced [email protected]
Format settings, BVOP : 1
Format settings, QPel : No
Format settings, GMC : No warppoints
Format settings, Matrix : Default (MPEG)
Codec ID : XVID
Codec ID/Hint : XviD
Duration : 1h 45mn
Bit rate : 1 517 Kbps
Width : 688 pixels
Height : 384 pixels
Display aspect ratio : 16:9
Frame rate : 23.976 fps
Color space : YUV
Chroma subsampling : 4:2:0
Bit depth : 8 bits
Scan type : Progressive
Compression mode : Lossy
Bits/(Pixel*Frame) : 0.239
Stream size : 1.12 GiB (77%)
Writing library : XviD 1.2.1 (UTC 2008-12-04)

Audio
ID : 1
Format : AC-3
Format/Info : Audio Coding 3
Mode extension : CM (complete main)
Codec ID : 2000
Duration : 1h 45mn
Bit rate mode : Constant
Bit rate : 448 Kbps
Channel(s) : 6 channels
Channel positions : Front: L C R, Side: L R, LFE
Sampling rate : 48.0 KHz
Bit depth : 16 bits
Compression mode : Lossy
Stream size : 338 MiB (23%)
Alignment : Split accross interleaves
Interleave, duration : 42 ms (1.00 video frame)
Interleave, preload duration : 500 ms




   Похожие торренты   Торрент   Размер 
В этой теме нет новых непрочитанных сообщений. Свет вокруг / Everything Is Illuminated (2005) DVDRip-AVC

24 | 4

2.05 ГБ

В этой теме нет новых непрочитанных сообщений. Свет Вокруг / Everything Is Illuminated (2005) DVDRip

22 | 2

701.55 МБ

В этой теме нет новых непрочитанных сообщений. Свет вокруг / Everything Is Illuminated (2005) WEB-DL 1080p | P2, P

8 | 1

8.33 ГБ

В этой теме нет новых непрочитанных сообщений. Свет вокруг / Всё озарено / Everything Is Illuminated (2005) HDTV 720p | P

109 | 5

2.92 ГБ

В этой теме нет новых непрочитанных сообщений. Новый Свет / The New World (2005) DVDRip от ExKinoRay

177 | 27

2.14 ГБ

В этой теме нет новых непрочитанных сообщений. Вокруг света за 80 дней / 80 дней вокруг света / Around the World in Eighty Days (1972) DVDRip | Советская озвучка

132 | 27

1.36 ГБ

В этой теме нет новых непрочитанных сообщений. Новый Свет / The New World (2005) DVD9

2 | 5

7.4 ГБ




Вы не можете начинать темы
Вы не можете отвечать на сообщения
Вы не можете редактировать свои сообщения
Вы не можете удалять свои сообщения
Вы не можете добавлять вложения

Перейти:  
Для Мосгорсуда, Роскомнадзора и рекламодателей: mosgorsud-torrent[собачка]yandex.ru
Настройки
ppkBB3cker v.2 © 2008-2014 @ PPK
[ Time : 0.031s | 17 Queries | GZIP : Off ]

cron