img image001 image001 image001 image001 image001 image001 image001 image001 image001 image001 image001 image001 image001 image001 image001

Planets Sun Sun Sun
Статистика раздачи
Автор: PriZraK | Размер: 7.76 ГБ | Добавлен: 12 фев 2014, 21:30
Раздают: 38    Качают: 14
Скачать торрент
Скачать торрент
Описание торрента

СообщениеДобавлено: 12 фев 2014, 21:30 




Название: Игры дьявола
Оригинальное название: Before the Devil Knows You're Dead
Год выхода: 2007
Жанр: триллер, драма, криминал
Режиссер: Сидни Люмет / Sidney Lumet
В ролях: Филип Сеймур Хоффман, Этан Хоук, Альберт Финни, Мариса Томей, Алекса Палладино, Майкл Шэннон, Эми Райан, Сара Ливингстон, Брайан Ф. О’Бирн, Розмари Харрис

О фильме:
Два брата замыслили идеальное, как им кажется, преступление. В теории они должны получить огромную сумму денег, обойдясь при этом без оружия, жестокости и кровопролития. Более того, вероятность неудачи сведена к нулю. Однако хитроумный план идет прахом, когда соучастник героев самовольно меняет правила игры, и подвергает себя и подельников неоправданному риску. Преступники теряют контроль над ситуацией, а череда последующих событий, увы, никого не оставляет в безопасности…



Выпущено: США
Продолжительность: 01:56:43
Перевод: Дублированный + Авторский (одноголосый закадровый) Ю.Сербин + Оригинал

Файл
Кодек: x264
Качество: BDRip 1080p
Видео: 1920x1040, 8176 Kbps, 23.976 fps
Аудио #1: AC-3, 6 ch, 448 kbps (Rus)
Аудио #2: AC-3, 6 ch, 448 kbps (Rus)|Одноголосый закадровый, Ю.Сербин|
Аудио #3: AC-3, 6 ch, 448 kbps (Eng)
Субтитры: Русские, Английские

На 00:34:36 полоса изображения по центру экрана рассыпается на квадратики, скрин с исходника
Общее
Уникальный идентификатор : 231238251967460254700259206169617532589 (0xADF6DE0C4CE7216199F7F0AA4BD486AD)
Полное имя : Игры дьявола.2007.BDRip.1080p.Rus.Eng.mkv
Формат : Matroska
Версия формата : Version 2
Размер файла : 7,76 Гбайт
Продолжительность : 1 ч. 56 м.
Общий поток : 9519 Кбит/сек
Название фильма : Игры дьявола.2007
Дата кодирования : UTC 2013-12-30 15:10:22
Программа кодирования : mkvmerge v5.8.0 ('No Sleep / Pillow') built on Sep 2 2012 15:37:04
Библиотека кодирования : libebml v1.2.3 + libmatroska v1.3.0

Видео
Идентификатор : 1
Формат : AVC
Формат/Информация : Advanced Video Codec
Профиль формата : [email protected]
Параметр CABAC формата : Да
Параметр ReFrames формата : 4 кадра
Идентификатор кодека : V_MPEG4/ISO/AVC
Продолжительность : 1 ч. 56 м.
Битрейт : 8176 Кбит/сек
Ширина : 1920 пикселей
Высота : 1040 пикселей
Соотношение сторон : 1,85:1
Режим частоты кадров : Постоянный
Частота кадров : 23,976 кадра/сек
Цветовое пространство : YUV
Субдискретизация насыщенности : 4:2:0
Битовая глубина : 8 бит
Тип развёртки : Прогрессивная
Бит/(Пиксели*Кадры) : 0.171
Размер потока : 6,51 Гбайт (84%)
Заголовок : Rip by Boriy
Библиотека кодирования : x264 core 140 r2377 1ca7bb9
Настройки программы : cabac=1 / ref=4 / deblock=1:-3:-3 / analyse=0x3:0x113 / me=umh / subme=11 / psy=1 / psy_rd=1.00:0.00 / mixed_ref=1 / me_range=32 / chroma_me=1 / trellis=2 / 8x8dct=1 / cqm=0 / deadzone=21,11 / fast_pskip=0 / chroma_qp_offset=-2 / threads=12 / lookahead_threads=1 / sliced_threads=0 / nr=0 / decimate=0 / interlaced=0 / bluray_compat=0 / constrained_intra=0 / bframes=6 / b_pyramid=2 / b_adapt=2 / b_bias=0 / direct=3 / weightb=1 / open_gop=0 / weightp=2 / keyint=240 / keyint_min=23 / scenecut=40 / intra_refresh=0 / rc=2pass / mbtree=0 / bitrate=8176 / ratetol=1.0 / qcomp=0.60 / qpmin=0 / qpmax=69 / qpstep=4 / cplxblur=20.0 / qblur=0.5 / ip_ratio=1.40 / pb_ratio=1.30 / aq=1:0.80
Язык : English
Default : Да
Forced : Нет

Аудио #1
Идентификатор : 2
Формат : AC-3
Формат/Информация : Audio Coding 3
Расширение режима : CM (complete main)
Параметр Endianness формата : Big
Идентификатор кодека : A_AC3
Продолжительность : 1 ч. 56 м.
Вид битрейта : Постоянный
Битрейт : 448 Кбит/сек
Каналы : 6 каналов
Расположение каналов : Front: L C R, Side: L R, LFE
Частота : 48,0 КГц
Битовая глубина : 16 бит
Метод сжатия : С потерями
Размер потока : 374 Мбайт (5%)
Заголовок : Дубляж
Язык : Russian
Default : Да
Forced : Нет

Аудио #2
Идентификатор : 3
Формат : AC-3
Формат/Информация : Audio Coding 3
Расширение режима : CM (complete main)
Параметр Endianness формата : Big
Идентификатор кодека : A_AC3
Продолжительность : 1 ч. 56 м.
Вид битрейта : Постоянный
Битрейт : 448 Кбит/сек
Каналы : 6 каналов
Расположение каналов : Front: L C R, Side: L R, LFE
Частота : 48,0 КГц
Битовая глубина : 16 бит
Метод сжатия : С потерями
Размер потока : 374 Мбайт (5%)
Заголовок : Одноголосый закадровый, Ю.Сербин
Язык : Russian
Default : Нет
Forced : Нет

Аудио #3
Идентификатор : 4
Формат : AC-3
Формат/Информация : Audio Coding 3
Расширение режима : CM (complete main)
Параметр Endianness формата : Big
Идентификатор кодека : A_AC3
Продолжительность : 1 ч. 56 м.
Вид битрейта : Постоянный
Битрейт : 448 Кбит/сек
Каналы : 6 каналов
Расположение каналов : Front: L C R, Side: L R, LFE
Частота : 48,0 КГц
Битовая глубина : 16 бит
Метод сжатия : С потерями
Размер потока : 374 Мбайт (5%)
Заголовок : Оригинал
Язык : English
Default : Нет
Forced : Нет

Текст #1
Идентификатор : 5
Формат : UTF-8
Идентификатор кодека : S_TEXT/UTF8
Идентификатор кодека/Информация : UTF-8 Plain Text
Язык : Russian
Default : Нет
Forced : Нет

Текст #2
Идентификатор : 6
Формат : UTF-8
Идентификатор кодека : S_TEXT/UTF8
Идентификатор кодека/Информация : UTF-8 Plain Text
Язык : English
Default : Нет
Forced : Нет

Меню
00:00:00.000 : :Chapter 1
00:04:00.865 : :Chapter 2
00:08:58.369 : :Chapter 3
00:13:26.053 : :Chapter 4
00:16:35.157 : :Chapter 5
00:21:27.286 : :Chapter 6
00:29:56.000 : :Chapter 7
00:37:50.893 : :Chapter 8
00:41:47.713 : :Chapter 9
00:47:55.289 : :Chapter 10
00:51:50.731 : :Chapter 11
00:59:29.564 : :Chapter 12
01:05:55.242 : :Chapter 13
01:13:11.386 : :Chapter 14
01:17:52.332 : :Chapter 15
01:23:12.904 : :Chapter 16
01:30:16.411 : :Chapter 17
01:34:20.529 : :Chapter 18
01:41:51.104 : :Chapter 19
01:46:45.814 : :Chapter 20
01:52:32.578 : :Chapter 21



   Похожие торренты   Торрент   Размер 
В этой теме нет новых непрочитанных сообщений. Игры дьявола / Before the Devil Knows You're Dead (2007) BDRip 1080p

4 | 2

13.13 ГБ

В этой теме нет новых непрочитанных сообщений. Игры дьявола / Before the Devil Knows You're Dead (2007) BDRip

19 | 6

1.46 ГБ

В этой теме нет новых непрочитанных сообщений. Игры дьявола / Before the Devil Knows You're Dead (2007) BDRip-AVC от R.G. AVI | AVC

9 | 3

2.18 ГБ

В этой теме нет новых непрочитанных сообщений. Игры дьявола / Before the Devil Knows You're Dead (2007) BDRip

45 | 1

748.93 МБ

В этой теме нет новых непрочитанных сообщений. Игры дьявола / Before the Devil Knows You're Dead (2007) BDRip от HQ-ViDEO

11 | 3

2.5 ГБ

В этой теме нет новых непрочитанных сообщений. Игры дьявола / Before the Devil Knows You're Dead (2007) BDRip от HQCLUB

8 | 2

2.18 ГБ

В этой теме нет новых непрочитанных сообщений. Игры дьявола / Before the Devil Knows You're Dead (2007) BDRip 720p

19 | 6

4.98 ГБ




Вы не можете начинать темы
Вы не можете отвечать на сообщения
Вы не можете редактировать свои сообщения
Вы не можете удалять свои сообщения
Вы не можете добавлять вложения

Перейти:  
Для Мосгорсуда, Роскомнадзора и рекламодателей: mosgorsud-torrent[собачка]yandex.ru
Настройки
ppkBB3cker v.2 © 2008-2014 @ PPK
[ Time : 0.034s | 17 Queries | GZIP : Off ]

cron